Wiener Philharmoniker Summer Night Concert Schönbrunn 2015

Wiener Philharmoniker Summer Night Concert Schönbrunn 2015

Date: Thursday, May 14, 2015
Time: 8:15 PM
Place: Schönbrunn Palace, Palace Gardens
(in front of the Neptune Fountain)
1130 Vienna

Conductor: Zubin Mehta
Soloist: Rudolf Buchbinder, Piano

The Vienna Philharmonic performed its annual Summer Night Concert Schönbrunn, an open-air concert with free admission, in the unique ambience of the gardens of Schönbrunn Palace on Thursday, May 14, 2015. Zubin Mehta conducted the Summer Night Concert with Rudolf Buchbinder as soloist.
This year's concert, which also represented the opening concert of the Vienna Festival, was attended by 100,000 visitors.
With this open-air concert in Schönbrunn, the Vienna Philharmonic wishes to provide all Viennese, as well as visitors to the city, with a special musical experience in the impressive setting of Schönbrunn Palace and its beautiful baroque gardens, a UNESCO World Cultural Heritage Site.

Music Program

  • Richard Strauss - Wiener Philharmoniker Fanfare op. 109
  • Edvard Grieg - Piano Concerto in A minor, op. 16 (Buchbinder soloist)
  • Alfred Grünfeldt - Soirée de Vienne (Buchbinder)
  • Christian Sinding - Rustle of Spring, op. 32, Nr. 3
  • Edvard Grieg - Peer-Gynt-Suite Nr. 1, op. 46
  • Jean Sibelius - Finlandia, Tondichtung op. 26/7
  • Hans Christian Lumbye - Copenhagener Eisenbahn Dampf Galopp
  • Johann Strauss II - Wiener Blut, "Viennese Spirit" Waltz

Zubin Mehta

Zubin Mehta was born in 1936 in Bombay and received his first musical education under his father’s Mehli Mehta’s guidance who was a noted concert violinist and the founder of the Bombay Symphony Orchestra. In 1954 he left for Vienna, where he eventually entered the conducting program under Hans Swarowsky at the Akademie für Musik. Zubin Mehta won the Liverpool International Conducting Competition in 1958 and was also a prize-winner of the summer academy at Tanglewood. By 1961 he had already conducted the Vienna, Berlin and Israel Philharmonic Orchestras and has recently celebrated 50 years of musical collaboration with all three ensembles.

Rudolf Buchbinder

Rudolf Buchbinder is firmly established as one of the world's foremost pianists and is frequently invited by major orchestras and festivals around the world. His comprehensive repertoire encompasses numerous 20th century compositions.
Rudolf Buchbinder's emphasis lies in his meticulous study of musical sources. He owns 35 complete editions of Beethoven's sonatas and has an extensive collection of autograph scores, first editions and original documents. In addition, he possesses copies of the autograph scores and piano parts of both Brahms concertos.

Download Wiener Philharmoniker Summer Night Concert Schönbrunn 2015.ts[720P] 9.69GB

General
ID                                       : 8900 (0x22C4)
Complete name                            : C:\rutracker.org_HD\3sat HD_Sommernachtskonzert Schonbrunn 2015.ts
Format                                   : MPEG-TS
File size                                : 9.69 GiB
Duration                                 : 1h 38mn
Overall bit rate mode                    : Variable
Overall bit rate                         : 14.1 Mbps

Video
ID                                       : 6510 (0x196E)
Menu ID                                  : 11150 (0x2B8E)
Format                                   : AVC
Format/Info                              : Advanced Video Codec
Format profile                           : [email protected]
Format settings, CABAC                   : Yes
Format settings, ReFrames                : 6 frames
Codec ID                                 : 27
Duration                                 : 1h 38mn
Bit rate                                 : 12.3 Mbps
Width                                    : 1 280 pixels
Height                                   : 720 pixels
Display aspect ratio                     : 16:9
Frame rate                               : 50.000 fps
Color space                              : YUV
Chroma subsampling                       : 4:2:0
Bit depth                                : 8 bits
Scan type                                : Progressive
Bits/(Pixel*Frame)                       : 0.267
Stream size                              : 8.46 GiB (87%)
Color primaries                          : BT.709
Transfer characteristics                 : BT.709
Matrix coefficients                      : BT.709

Audio #1
ID                                       : 6520 (0x1978)
Menu ID                                  : 11150 (0x2B8E)
Format                                   : MPEG Audio
Format version                           : Version 1
Format profile                           : Layer 2
Codec ID                                 : 3
Duration                                 : 1h 38mn
Bit rate mode                            : Constant
Bit rate                                 : 256 Kbps
Channel(s)                               : 2 channels
Sampling rate                            : 48.0 KHz
Compression mode                         : Lossy
Delay relative to video                  : -6ms
Stream size                              : 180 MiB (2%)
Language                                 : German

Audio #2
ID                                       : 6521 (0x1979)
Menu ID                                  : 11150 (0x2B8E)
Format                                   : MPEG Audio
Format version                           : Version 1
Format profile                           : Layer 2
Codec ID                                 : 3
Duration                                 : 1h 38mn
Bit rate mode                            : Constant
Bit rate                                 : 192 Kbps
Channel(s)                               : 2 channels
Sampling rate                            : 48.0 KHz
Compression mode                         : Lossy
Delay relative to video                  : -6ms
Stream size                              : 135 MiB (1%)

Audio #3
ID                                       : 6522 (0x197A)
Menu ID                                  : 11150 (0x2B8E)
Format                                   : AC-3
Format/Info                              : Audio Coding 3
Mode extension                           : CM (complete main)
Format settings, Endianness              : Big
Codec ID                                 : 6
Duration                                 : 1h 38mn
Bit rate mode                            : Constant
Bit rate                                 : 448 Kbps
Channel(s)                               : 6 channels
Channel positions                        : Front: L C R, Side: L R, LFE
Sampling rate                            : 48.0 KHz
Bit depth                                : 16 bits
Compression mode                         : Lossy
Delay relative to video                  : -5ms
Stream size                              : 315 MiB (3%)
Language                                 : German

Audio #4
ID                                       : 6523 (0x197B)
Menu ID                                  : 11150 (0x2B8E)
Format                                   : MPEG Audio
Format version                           : Version 1
Format profile                           : Layer 2
Codec ID                                 : 3
Duration                                 : 1h 38mn
Bit rate mode                            : Constant
Bit rate                                 : 192 Kbps
Channel(s)                               : 2 channels
Sampling rate                            : 48.0 KHz
Compression mode                         : Lossy
Delay relative to video                  : -22ms
Stream size                              : 135 MiB (1%)
Language                                 : Multiple languages
Wiener Philharmoniker Summer Night Concert Schönbrunn 2015
73 votes, 3.92 avg. rating (78% score)