Wiener Philharmoniker Summer Night Concert Schönbrunn 2017

Wiener Philharmoniker Summer Night Concert Schönbrunn 2017

Date: Thursday, May 25, 2017
Time: 8:30 PM
Place: Schönbrunn Palace, Palace Gardens
(in front of the Neptune Fountain)
1130 Vienna

Conductor: Christoph Eschenbach
Soloist: Renée Fleming

Program

  • Antonín Dvorák (1841-1904)

Carnival Concert Overture, op.92
"Za štíhlou gazelou" (As I merrily pursued a gazelle) Aria of Armida from "Armida", op.115
"Mesícku na nebi hlubokém" (Song to the Moon) from "Rusalka", op. 114

  • Peter Ilyich Tchaikovsky (1840-1893)

"The Sleeping Beauty", Ballet Suite, op. 66a
        II Adagio. Pas d'action
        V Valse

  • Sergei Rachmaninov (1873-1943)

Sumerki"(Twilight), op. 21, No. 3. Orchestration: Walter Mnatsakanov
"Ne poy, krasavitsa, pri mne!" (Never Sing to Me Again, Beautiful Maiden), op. 4, No. 4. Orchestration: Leonidas Leonardi
"Vesenniyevodi" (Spring Waters), op. 14, No. 11. Orchestration: Walter Mnatsakanov

  • Engelbert Humperdinck (1854-1921)

Prelude to "Hansel and Gretel"

  • John Williams (*1932)

Hedwig's Theme from "Harry Potter"

  • Igor Strawinsky (1882-1971)

"L'Oiseau de feu" (The Firebird) Ballet Suite (1919 Version)
        V Danse infernale du Roi Kachtcheï (Infernal Dance of King Kashcheï)
        VI Berceuse (Lullaby)
        VII Finale

Magnet URI magnet:?xt=urn:btih:E08910E43680E24B628A68F8ED4456F2B4A35C87&dn=Sommernachtskonzert%202017%20%28ORF2%29

General
ID                                       : 5 (0x5)
Complete name                            : Sommernachtskonzert2017.ts
Format                                   : MPEG-TS
File size                                : 5.49 GiB
Duration                                 : 1h 36mn
Overall bit rate mode                    : Variable
Overall bit rate                         : 8 173 Kbps

Video
ID                                       : 3401 (0xD49)
Menu ID                                  : 5008 (0x1390)
Format                                   : AVC
Format/Info                              : Advanced Video Codec
Format profile                           : [email protected]
Format settings, CABAC                   : Yes
Format settings, ReFrames                : 4 frames
Format settings, GOP                     : M=3, N=15
Codec ID                                 : 27
Duration                                 : 1h 36mn
Bit rate                                 : 7 317 Kbps
Maximum bit rate                         : 7 764 Kbps
Width                                    : 1 280 pixels
Height                                   : 720 pixels
Display aspect ratio                     : 16:9
Frame rate                               : 50.000 fps
Standard                                 : Component
Color space                              : YUV
Chroma subsampling                       : 4:2:0
Bit depth                                : 8 bits
Scan type                                : Progressive
Bits/(Pixel*Frame)                       : 0.159
Stream size                              : 4.92 GiB (90%)
Color range                              : Limited
Color primaries                          : BT.709
Transfer characteristics                 : BT.709
Matrix coefficients                      : BT.709

Audio
ID                                       : 3441 (0xD71)
Menu ID                                  : 5008 (0x1390)
Format                                   : AC-3
Format/Info                              : Audio Coding 3
Format settings, Endianness              : Big
Codec ID                                 : 6
Duration                                 : 1h 36mn
Bit rate mode                            : Constant
Bit rate                                 : 448 Kbps
Channel(s)                               : 6 channels
Channel positions                        : Front: L C R, Side: L R, LFE
Sampling rate                            : 48.0 KHz
Frame rate                               : 31.250 fps (1536 spf)
Bit depth                                : 16 bits
Compression mode                         : Lossy
Delay relative to video                  : 104ms
Stream size                              : 308 MiB (5%)
Language                                 : German
Language, more info                      : Clean effects
Service kind                             : Complete Main
Wiener Philharmoniker Summer Night Concert Schönbrunn 2017
1 vote, 5.00 avg. rating (97% score)