Wiener Philharmoniker Summer Night Concert Schönbrunn 2018

Wiener Philharmoniker Summer Night Concert Schönbrunn 2018

Date: Thursday, May 31, 2018 Time: 8:30 PM
Place: Schönbrunn Palace, Palace Gardens 1130 Vienna
Conductor: Valery Gergiev
Soloist: Anna Netrebko

Program

GIOACCHINO ROSSINI
Guillaume Tell: Overture: Finale

GIUSEPPE VERDI
La forza del destino: Overture

FRANCESCO CILEA
Adriana Lecouvreur: "Io son l'umile ancella"

PIETRO MASCAGNI
Cavalleria rusticana: Symphonic Interlude

GIUSEPPE VERDI
Aida

Triumphal March

Ballet Music

PYOTR ILYICH TCHAIKOVSKY
Swan Lake: Neapolitan Dance

SERGEI PROKOFIEV
Romeo and Juliet – Suite No. 2 op. 64b, No. 1. Montagues and Capulets

GIACOMO PUCCINI
Tosca: "Vissi d'arte, vissi d'amore"

GIACOMO PUCCINI
Manon Lescaut: Intermezzo

RUGGERO LEONCAVALLO
Pagliacci: "Stridono lassù"

Magnet URI: magnet:?xt=urn:btih:8691845e7e58b6a5e207dc6f452a0597e3e5ab27&dn=Sommernachtskonzert in Schönbrunn 2018

General
ID                                       : 1 (0x1)
Complete name                            : Sommernachtkonzert in Schönbrunn 2018/Wiener Philharminoker 31.05.2018.ts
Format                                   : MPEG-TS
File size                                : 14.1 GiB
Duration                                 : 1h 16mn
Overall bit rate mode                    : Variable
Overall bit rate                         : 26.5 Mbps
Maximum Overall bit rate                 : 35.5 Mbps

Video
ID                                       : 4113 (0x1011)
Menu ID                                  : 1 (0x1)
Format                                   : AVC
Format/Info                              : Advanced Video Codec
Format profile                           : High 4:2:[email protected]
Format settings                          : CABAC / 3 Ref Frames
Format settings, CABAC                   : Yes
Format settings, ReFrames                : 3 frames
Codec ID                                 : 27
Duration                                 : 1h 16mn
Bit rate mode                            : Constant
Bit rate                                 : 24.8 Mbps
Width                                    : 1 920 pixels
Height                                   : 1 080 pixels
Display aspect ratio                     : 16:9
Frame rate                               : 25.000 fps
Color space                              : YUV
Chroma subsampling                       : 4:2:2
Bit depth                                : 8 bits
Scan type                                : MBAFF
Scan type, store method                  : Separated fields
Scan order                               : Top Field First
Bits/(Pixel*Frame)                       : 0.478
Stream size                              : 12.8 GiB (91%)
Color range                              : Limited
Color primaries                          : BT.709
Transfer characteristics                 : BT.709
Matrix coefficients                      : BT.709

Audio #1
ID                                       : 4352 (0x1100)
Menu ID                                  : 1 (0x1)
Format                                   : AC-3
Format/Info                              : Audio Coding 3
Codec ID                                 : 129
Duration                                 : 1h 16mn
Bit rate mode                            : Constant
Bit rate                                 : 640 Kbps
Channel(s)                               : 6 channels
Channel positions                        : Front: L C R, Side: L R, LFE
Sampling rate                            : 48.0 KHz
Frame rate                               : 31.250 fps (1536 SPF)
Bit depth                                : 16 bits
Compression mode                         : Lossy
Delay relative to video                  : 5ms
Stream size                              : 348 MiB (2%)
Language                                 : German
Service kind                             : Complete Main

Audio #2
ID                                       : 4353 (0x1101)
Menu ID                                  : 1 (0x1)
Format                                   : MPEG Audio
Format version                           : Version 1
Format profile                           : Layer 2
Codec ID                                 : 4
Duration                                 : 1h 16mn
Bit rate mode                            : Constant
Bit rate                                 : 384 Kbps
Channel(s)                               : 2 channels
Sampling rate                            : 48.0 KHz
Frame rate                               : 41.667 fps (1152 SPF)
Compression mode                         : Lossy
Delay relative to video                  : 1ms
Stream size                              : 209 MiB (1%)
Language                                 : English
Wiener Philharmoniker Summer Night Concert Schönbrunn 2018
3 votes, 4.33 avg. rating (88% score)